Статистика раздачи
Размер:  18,81 GB   |    Зарегистрирован:  3 месяца 12 дней   |    Скачан:  0 раз

Полного источника не было: Никогда

 
   
 
 

Virtuoz ®

Пол:
Не указан
Стаж:
4 месяца 10 дней
Сообщений:
98

- Год выпуска: 2017
Страна: Япония
Жанр: повседневность, комедия
Продолжительность: TV, 12 эп. по 25 мин.
Режиссер: Фудзивара Ёсиюки
Студия: Doga Kobo
Выпуск: с 29.06.2017 по 14.09.2017-Описание:
«Видеоигры — мое все!», — таков девиз выпускницы старшей школы Аобы Сузуказэ. По окончанию школы она отправляется работать художником заднего плана в компанию-разработчика игр. Но мало того, что сама Аоба выглядит отнюдь не как старшеклассница, так еще и попадает в команду чудаков-разработчиков! Сможет ли в такой компании Аоба воплотить свою мечту в реальность: занять роль проектировщика в столь неоднозначном коллективе?
Второй сезон.© Levithan
-Информационные ссылки: AniDB || World Art || MAL-Качество: BDRip
Автор рипа: Jensen [Beatrice-Raws]
Тип релиза: Без хардсаба; без линковки; с главами
Формат видео: MKV
Видео: MPEG4 (H264); 10 бит; 1920x1080; ~8500 Кбит/сек; 23.976 кадра/сек
Аудио JAP: FLAC; 48000Hz; 2ch; ~650 Кбит/сек
Субтитры RUS: ASS; внешние; перевод: Akashi, BBNG & Саша

Субтитры RUS: переводчик/тайминг: Саша Ушкина, редактор: Seiya Loveless, оформление: Surokune
Субтитры ENG: ASS; внешние; перевод: HorribleSubs

Список эпизодов

01. Of all the embarrassing things to be caught doing...
02. This Is Just Turning Into Cos-purr-lay!
03. Ooh, I'm So Embarrassed!
04. How Dense... Can You Be?
05. Hey! Don't Touch Me There!
06. Wow... It's So Amazing...
07. I'm Sensing a Very Intense Gaze
08. I'm Telling You, I Want a Maid Café
09. At Least Put a Shirt On!
10. It's Gonna Really Break the Immersion
11. I Shudder to Imagine What's Hidden in Your Heart
12. Please Buy It!

Скриншоты

Отличия от других раздач

Horodep - BDRip
Horodep - BDRip
antiBILLotic - BDRip
-

Подробные тех. данные

General
Unique ID : 218155952557599229693735494511255145820 (0xA41F4EE36C4C2CDE90C0DD053B70CD5C)
Complete name : \New Game!! TV-2 [BDRip 1080p x264 FLAC]\[Beatrice-Raws] New Game!! 01 [BDRip 1920x1080 x264 FLAC].mkv
Format : Matroska
Format version : Version 4 / Version 2
File size : 1.51 GiB
Duration : 23 min 41 s
Overall bit rate mode : Variable
Overall bit rate : 9 099 kb/s
Encoded date : UTC 2017-10-19 20:26:20
Writing application : mkvmerge v17.0.0 ('Be Ur Friend') 64-bit
Writing library : libebml v1.3.5 + libmatroska v1.4.8
Video
ID : 1
Format : AVC
Format/Info : Advanced Video Codec
Format profile : High 10@L5
Format settings, CABAC : Yes
Format settings, RefFrames : 4 frames
Codec ID : V_MPEG4/ISO/AVC
Duration : 23 min 41 s
Bit rate : 8 445 kb/s
Width : 1 920 pixels
Height : 1 080 pixels
Display aspect ratio : 16:9
Frame rate mode : Constant
Frame rate : 23.976 (24000/1001) FPS
Color space : YUV
Chroma subsampling : 4:2:0
Bit depth : 10 bits
Scan type : Progressive
Bits/(Pixel*Frame) : 0.170
Stream size : 1.40 GiB (93%)
Title : BDrip by Jensen
Writing library : x264 core 148 r2597M e86f3a1 (DJATOM's build)
Encoding settings : cabac=1 / ref=4 / deblock=1:1:-1 / analyse=0x3:0x113 / me=umh / subme=9 / psy=1 / fade_compensate=0.00 / psy_rd=1.00:0.00 / mixed_ref=1 / me_range=32 / chroma_me=1 / trellis=2 / 8x8dct=1 / cqm=0 / deadzone=21,11 / fast_pskip=1 / chroma_qp_offset=-2 / threads=34 / lookahead_threads=5 / sliced_threads=0 / nr=0 / decimate=1 / interlaced=0 / bluray_compat=0 / constrained_intra=0 / bframes=9 / b_pyramid=2 / b_adapt=2 / b_bias=0 / direct=1 / weightb=1 / open_gop=0 / weightp=2 / keyint=240 / keyint_min=23 / scenecut=40 / intra_refresh=0 / rc=crf / mbtree=0 / crf=14.5000 / qcomp=0.72 / qpmin=0 / qpmax=81 / qpstep=4 / ip_ratio=1.40 / pb_ratio=1.30 / aq=1:0.85
Language : Japanese
Default : Yes
Forced : No
Color range : Limited
Color primaries : BT.709
Transfer characteristics : BT.709
Matrix coefficients : BT.709
Audio
ID : 2
Format : FLAC
Format/Info : Free Lossless Audio Codec
Codec ID : A_FLAC
Duration : 23 min 41 s
Bit rate mode : Variable
Bit rate : 652 kb/s
Channel(s) : 2 channels
Channel positions : Front: L R
Sampling rate : 48.0 kHz
Frame rate : 11.719 FPS (4096 SPF)
Bit depth : 16 bits
Stream size : 110 MiB (7%)
Writing library : libFLAC 1.3.1 (UTC 2014-11-25)
Language : Japanese
Default : Yes
Forced : No
Menu
00:00:00.000 : en:Avant
00:00:48.048 : en:Part A
00:11:35.027 : en:Part B
00:22:35.354 : en:ED
-

Информация о релизе

  • Выбор видео, перевода осуществляется релизером и не подлежит обсуждению. Если вы считаете, что раздаваемый материал противоречит правилам раздела "Аниме" rutracker.org, сообщите об этом одному из модераторов раздела.

  • Данный релиз предназначен для просмотра на ПК. Воспроизведение на иных проигрывателях не гарантируется.

  • Данный релиз содержит 10-битное видео (Hi10p). Для корректного воспроизведения обязательно используйте кодеки, поддерживающие 10-битное видео.
    Обсудить проблемы с воспроизведением и получить дополнительную информацию можно здесь.

  • Данный релиз предназначен для просмотра с внешними субтитрами.
  • Для просмотра с русскими субтитрами нужно:
  • установить шрифты из папки "RUS Subs » Fonts";
  • скопировать файлы .ass из папки "RUS Subs" в одну папку с видео - плеер подгрузит их автоматически при открытии видео.
  • Для просмотра с английскими субтитрами нужно:
  • установить шрифты из папки "ENG Subs » Fonts";
  • скопировать файлы .ass из папки "ENG Subs" в одну папку с видео - плеер подгрузит их автоматически при открытии видео.
  • Если у вас возникли проблемы с просмотром, не связанные с описанным выше, сообщите о них автору раздачи посредством сообщения в теме или ЛС Horodep.
  • [torrents24.pl].t39312.torrent 
    Торрент: Зарегистрирован [ 2018-03-12 14:20 ] · 4320CB6E5E3CB83E814B9EE0C528A43DE3D0FBBA

    Скачать .torrent

    Скачать

    101 KB

    Статус: проверено
    Скачан: 0 раз
    Размер: 18,81 GB
    Профиль [ЛС]
    Показать сообщения:    

    Текущее время: 25-Июн 13:48

    Часовой пояс: UTC ± 0



    Вы не можете начинать темы
    Вы не можете отвечать на сообщения
    Вы не можете редактировать свои сообщения
    Вы не можете удалять свои сообщения
    Вы не можете голосовать в опросах
    Вы не можете прикреплять файлы к сообщениям
    Вы можете скачивать файлы