Статистика раздачи
Размер:  8,76 GB   |    Зарегистрирован:  6 месяцев 7 дней   |    Скачан:  0 раз

Полного источника не было: Никогда

 
   
 
 

koljan ®

Пол:
Не указан
Стаж:
7 месяцев 5 дней
Сообщений:
295

Приключения кота в сапогах / The Adventures of Puss in Boots
Страна: США
Жанр: Мультсериал, комедия, приключения, семейный
Продолжительность серии: 13 х ~ 00:22:00
Год выпуска: 2017
Перевод: Профессиональный (дублированный)
Русские субтитры: нет
Режиссёр: Даг Лэнгдэйл
Роли озвучивали: Эрик Бауза, Грей ДеЛайл, Карла Хименес, Арибелла Макана, Джейма Мейс, Лорейн Ньюмен, Пол Ругг, Джошуа Раш, Фрэнк Уэлкер, Дэнни Трехо
Описание: Известный по серии мультфильмов "Шрек" Кот в Сапогах решает отправиться в зачарованный город Сан-Лоренцо. Город этот скрыт в мифических землях и невидим для внешнего мира. Он охраняется мощными заклинаниями, которые охраняют его жителей и их чудесное сокровище от всяческих посягательств. Но поскольку наш герой - это Кот в сапогах - не был бы он самим собой, если бы случайно не разрушил столь важные для города чары. И теперь он должен не только защитить Сан-Лоренцо от легионов захватчиков и грабителей, но и исправить свою ошибку, вернув волшебной земле её защитную магию. Кто на это способен? Конечно, только настоящий герой!

Качество: Netflix WEB-DL 1080p
Формат: MKV
Видео: MPEG-4 AVC, 1920x1080 [16:9], 25.000 fps, ~ 6630 Kbps
Аудио 1: [Русский] AC3, 48 kHz, 2 ch, 192 Kbps - СТС / SDI Media
Аудио 2: [Английский] AC3, 48 kHz, 6 ch, 384 Kbps
Субтитры: Английские (Full)
Ссылка на предыдущие и альтернативные раздачи
1 сезон
2 сезон
3 сезон
4 сезон

Релиз

Релиз CasStudio - BenderBEST
• За исходные записи большое спасибо - Beer kolesik Drinkers, #Antisnl#
• Работа c дорогой - BenderBEST

Подробные технические данные

Общее
Уникальный идентификатор : 244197383893814976491127873619546867196 (0xB7B6B494FA2CBA089058C4C6EA0805FC)
Полное имя : E:\The.Adventures.of.Puss.in.Boots.S01.1080p.NF.WEB-DL.Rus.Eng_CasStudio\The.Adventures.of.Puss.in.Boots.S01E01.1080p.NF.WEB-DL.Rus.Eng_CasStudio.mkv
Формат : Matroska
Версия формата : Version 4 / Version 2
Размер файла : 825 Мбайт
Продолжительность : 22 м.
Режим общего битрейта : Переменный
Общий поток : 5148 Кбит/сек
Название фильма : The Adventures of Puss in Boots S01E01 - ReJliz CasStudio by BenderBEST
Дата кодирования : UTC 2017-10-25 18:34:56
Программа кодирования : mkvmerge v6.9.1 ('Blue Panther') 32bit built on Apr 18 2014 18:15:44
Библиотека кодирования : libebml v1.3.0 + libmatroska v1.4.1
Видео
Идентификатор : 1
Формат : AVC
Формат/Информация : Advanced Video Codec
Профиль формата : Main@L4
Параметр CABAC формата : Да
Параметр ReFrames формата : 3 кадра
Идентификатор кодека : V_MPEG4/ISO/AVC
Продолжительность : 22 м.
Вид битрейта : Переменный
Битрейт : 4420 Кбит/сек
Максимальный битрейт : 6630 Кбит/сек
Ширина : 1920 пикселей
Высота : 1080 пикселей
Соотношение сторон : 16:9
Режим частоты кадров : Постоянный
Частота кадров : 25,000 кадров/сек
Цветовое пространство : YUV
Субдискретизация насыщенности : 4:2:0
Битовая глубина : 8 бит
Тип развёртки : Прогрессивная
Бит/(Пиксели*Кадры) : 0.085
Размер потока : 716 Мбайт (87%)
Библиотека кодирования : x264 core 118
Настройки программы : cabac=1 / ref=3 / deblock=1:0:0 / analyse=0x1:0x111 / me=umh / subme=10 / psy=1 / psy_rd=1.00:0.00 / mixed_ref=1 / me_range=24 / chroma_me=1 / trellis=2 / 8x8dct=0 / cqm=0 / deadzone=21,11 / fast_pskip=1 / chroma_qp_offset=-2 / threads=8 / sliced_threads=0 / nr=0 / decimate=1 / interlaced=0 / bluray_compat=0 / constrained_intra=0 / bframes=2 / b_pyramid=0 / b_adapt=2 / b_bias=0 / direct=3 / weightb=1 / open_gop=0 / weightp=2 / keyint=48 / keyint_min=25 / scenecut=0 / intra_refresh=0 / rc_lookahead=0 / rc=2pass / mbtree=1 / bitrate=4420 / ratetol=1.0 / qcomp=0.50 / qpmin=6 / qpmax=51 / qpstep=4 / cplxblur=20.0 / qblur=0.5 / vbv_maxrate=6630 / vbv_bufsize=8840 / nal_hrd=vbr / ip_ratio=1.40 / aq=1:1.00
Язык : English
Default : Да
Forced : Да
Аудио #1
Идентификатор : 2
Формат : AC-3
Формат/Информация : Audio Coding 3
Расширение режима : CM (complete main)
Параметр Endianness формата : Big
Идентификатор кодека : A_AC3
Продолжительность : 22 м.
Вид битрейта : Постоянный
Битрейт : 192 Кбит/сек
Каналы : 2 канала
Расположение каналов : Front: L R
Частота : 48,0 КГц
Частота кадров : 31,250 кадров/сек (1536 spf)
Метод сжатия : С потерями
Размер потока : 30,8 Мбайт (4%)
Заголовок : AC3 2.0 @ 192 kbps - DUB, СТС / SDI Media
Язык : Russian
Default : Да
Forced : Да
Аудио #2
Идентификатор : 3
Формат : AC-3
Формат/Информация : Audio Coding 3
Расширение режима : CM (complete main)
Параметр Endianness формата : Big
Идентификатор кодека : A_AC3
Продолжительность : 22 м.
Вид битрейта : Постоянный
Битрейт : 384 Кбит/сек
Каналы : 6 каналов
Расположение каналов : Front: L C R, Side: L R, LFE
Частота : 48,0 КГц
Частота кадров : 31,250 кадров/сек (1536 spf)
Метод сжатия : С потерями
Размер потока : 61,5 Мбайт (7%)
Заголовок : AC3 5.1 @ 384 kbps
Язык : English
Default : Нет
Forced : Нет
Текст
Идентификатор : 4
Формат : UTF-8
Идентификатор кодека : S_TEXT/UTF8
Идентификатор кодека/Информация : UTF-8 Plain Text
Заголовок : SDH
Язык : English
Default : Нет
Forced : Нет

Скриншоты


[torrents24.pl].t39570.torrent 
Торрент: Зарегистрирован [ 2018-03-12 14:20 ] · 6DE2D8B7165678C3DD3EAADA314FFD9FB65A923B

Скачать .torrent

Скачать

46 KB

Статус: проверено
Скачан: 0 раз
Размер: 8,76 GB
Профиль [ЛС]
Показать сообщения:    

Текущее время: 20-Сен 12:23

Часовой пояс: UTC ± 0



Вы не можете начинать темы
Вы не можете отвечать на сообщения
Вы не можете редактировать свои сообщения
Вы не можете удалять свои сообщения
Вы не можете голосовать в опросах
Вы не можете прикреплять файлы к сообщениям
Вы можете скачивать файлы
Torrents24.ru открытый BitTorrent Torrents24.pl открытый BitTorrent CyberTorrent.ru открытый BitTorrent BtList.ru рейтинг BitTorrent трекеров Яндекс.Метрика