Статистика раздачи
Размер:  4,71 GB   |    Зарегистрирован:  5 дней   |    Скачан:  0 раз

Полного источника не было: Никогда

 
   
 
 

Awrora ®

Пол:
Не указан
Стаж:
5 месяцев 2 дня
Сообщений:
343

История - X
X-Story
Год выпуска: 2015
Страна: Россия
Жанр: мультфильм, короткометражка
Продолжительность: 00:13:28
Перевод: не требуется
субтитры: отсутствуют-Режиссёр: Виталий Шушко : Vitaliy Shushko-Описание: Главный герой этого мультфильма - отважный искатель приключений Спайк. Он отправляется в древний город на поиски утерянного артефакта, который охраняет гигантский робот-убийца.- релиз: -Качество: WEB-DL 1080p
Формат: MKV
Видео кодек: AVC
Аудио кодек: AAC
Видео: 1920x1080, 25 fps, ~49.7 Mbps, 0.111 bit/pixel
Аудио: 48kHz, ACC, 2ch, 317 kbps

MediaInfo

General
Unique ID : 175040205424376065989263016562757832945 (0x83AF846E6B173119AC993B70C52D90F1)
Complete name : D:\Mult\X-STORY.2015.WEB-DL 1080p.mkv
Format : Matroska
Format version : Version 4 / Version 2
File size : 4.71 GiB
Duration : 13 min
Overall bit rate : 50.0 Mb/s
Encoded date : UTC 2017-09-27 08:22:31
Writing application : mkvmerge v13.0.0 ('The Juggler') 64bit
Writing library : libebml v1.3.4 + libmatroska v1.4.5
Video
ID : 1
Format : AVC
Format/Info : Advanced Video Codec
Format profile : Main@L4.1
Format settings, CABAC : Yes
Format settings, ReFrames : 3 frames
Format settings, GOP : M=4, N=25
Codec ID : V_MPEG4/ISO/AVC
Duration : 13 min
Bit rate : 49.7 Mb/s
Width : 1 920 pixels
Height : 1 080 pixels
Display aspect ratio : 16:9
Frame rate mode : Constant
Frame rate : 25.000 FPS
Standard : PAL
Color space : YUV
Chroma subsampling : 4:2:0
Bit depth : 8 bits
Scan type : Progressive
Bits/(Pixel*Frame) : 0.959
Stream size : 4.68 GiB (99%)
Language : English
Default : Yes
Forced : No
Color range : Limited
Color primaries : BT.709
Transfer characteristics : BT.709
Matrix coefficients : BT.709
Audio
ID : 2
Format : AAC
Format/Info : Advanced Audio Codec
Format profile : LC
Codec ID : A_AAC
Duration : 13 min
Bit rate : 317 kb/s
Channel(s) : 2 channels
Channel positions : Front: L R
Sampling rate : 48.0 kHz
Frame rate : 46.875 FPS (1024 spf)
Compression mode : Lossy
Stream size : 30.6 MiB (1%)
Language : English
Default : Yes
Forced : No
[torrents24.pl].t57138.torrent 
Торрент: Зарегистрирован [ 2018-07-12 00:16 ] · 885FC705F765992402B8CAA57338B692E67EDCA6

Скачать .torrent

Скачать

12 KB

Статус: проверено
Скачан: 0 раз
Размер: 4,71 GB
Профиль [ЛС]
Показать сообщения:    

Текущее время: 17-Июл 13:31

Часовой пояс: UTC ± 0



Вы не можете начинать темы
Вы не можете отвечать на сообщения
Вы не можете редактировать свои сообщения
Вы не можете удалять свои сообщения
Вы не можете голосовать в опросах
Вы не можете прикреплять файлы к сообщениям
Вы можете скачивать файлы