Статистика раздачи
Размер:  17,73 GB   |    Зарегистрирован:  5 дней   |    Скачан:  0 раз

Полного источника не было: Никогда

 
   
 
 

genjabtr ®

Пол:
Не указан
Стаж:
5 месяцев 2 дня
Сообщений:
196

Чёрный клевер / Black Clover
Страна: Япония
Год выпуска: 2017
Жанр: приключения, фэнтези
Тип: TV
Продолжительность: (>13 эп.), 25 мин.
Режиссер: Ёсихара Тацуя
Студия: Studio Pierrot
Описание: Ещё ребёнком Астер был оставлен у порога церкви. Там он вырос и познакомился с Юно, другим брошенным мальчиком. В детстве они пообещали друг другу, что один из них станет «Императором магов». Однако, чем старше они становились, тем больше различий между ними появлялось. Юно был гением магии, а Астер тренировал свое тело лишь физически. Когда им исполнилось по 15 лет, пришло время получать гримуары. Юно стал обладателем книги с четырёхлистным клевером (большинство людей получают книги с трёхлистным клевером), в то время как Астер не получил ничего. Однако, когда Юно угрожала опасность, Астер раскрыл свою истинную силу. В итоге парень стал обладателем гримуара с пятилистным клевером под названием «Чёрный клевер»! Теперь два друга путешествуют по миру, чтобы достичь одну и ту же цель.
Качество: HDTVRip
Тип релиза: Без хардсаба
Формат видео: MKV
Совместимость с бытовыми плеерами: Нет
Видео : [Leopard-Raws]
Видео: AVC, 1280x720, 23.976 fps, 2000 Kbps, 8 bits
Аудио: AAC , 192 kb/s, 48.0 KHz, 2 ch ; Язык Русский (в составе контейнера) ; Озвучка: женская одноголосая:Persona99
Аудио 2: AAC, 192 Kbps, 48.0 KHz, 2 ch Язык Японский
Субтитры: ASS внешние; Язык субтитров русский ; Перевод: Anku. Редакция: mutagenb

Подробные тех. данные

Общее
Уникальный идентификатор : 229898396625289752879078210991352293722 (0xACF4D21454BA1694AE5CBA495471A95A)
Полное имя : D:\Мои раздачи\Black Clover TV\Black Clover - 01 [Persona99](1280x720 x264 AAC).rus.jpn_track1_und.mkv
Формат : Matroska
Версия формата : Version 4 / Version 2
Размер файла : 413 Мбайт
Продолжительность : 24 м. 10 с.
Общий поток : 2391 Кбит/сек
Дата кодирования : UTC 2017-11-13 16:11:57
Программа кодирования : mkvmerge v17.0.0 ('Be Ur Friend') 32-bit
Библиотека кодирования : libebml v1.3.5 + libmatroska v1.4.8
Видео
Идентификатор : 1
Формат : AVC
Формат/Информация : Advanced Video Codec
Профиль формата : High@L4.1
Настройки формата : CABAC / 4 Ref Frames
Параметр CABAC формата : Да
Параметр RefFrames формата : 4 кадра
Идентификатор кодека : V_MPEG4/ISO/AVC
Продолжительность : 24 м. 9 с.
Битрейт : 2000 Кбит/сек
Ширина : 1280 пикселей
Высота : 720 пикселей
Соотношение сторон : 16:9
Режим частоты кадров : Постоянный
Частота кадров : 23,976 (24000/1001) кадра/сек
Цветовое пространство : YUV
Субдискретизация насыщенности : 4:2:0
Битовая глубина : 8 бит
Тип развёртки : Прогрессивная
Бит/(Пиксели*Кадры) : 0.091
Размер потока : 346 Мбайт (84%)
Библиотека кодирования : x264 core 129 r2245+729M 1a52e03
Настройки программы : cabac=1 / ref=4 / deblock=1:1:-1 / analyse=0x3:0x113 / me=umh / subme=9 / psy=1 / fade_compensate=0.00 / psy_rd=1.00:0.00 / mixed_ref=1 / me_range=24 / chroma_me=1 / trellis=2 / 8x8dct=1 / cqm=0 / deadzone=21,11 / fast_pskip=1 / chroma_qp_offset=-2 / threads=8 / lookahead_threads=1 / sliced_threads=0 / nr=0 / decimate=1 / interlaced=0 / bluray_compat=0 / constrained_intra=0 / fgo=0 / bframes=9 / b_pyramid=2 / b_adapt=2 / b_bias=0 / direct=1 / weightb=1 / open_gop=0 / weightp=2 / keyint=240 / keyint_min=24 / scenecut=40 / intra_refresh=0 / rc=crf / mbtree=0 / crf=18.5 / qcomp=0.72 / qpmin=0 / qpmax=69 / qpstep=4 / ip_ratio=1.40 / pb_ratio=1.30 / aq=1:0.85
Default : Да
Forced : Нет
Цветовой диапазон : Limited
Основные цвета : BT.709
Характеристики трансфера : BT.709
Коэффициенты матрицы : BT.709
Аудио #1
Идентификатор : 2
Формат : AAC
Формат/Информация : Advanced Audio Codec
Профиль формата : LC
Идентификатор кодека : A_AAC-2
Продолжительность : 24 м. 10 с.
Битрейт : 192 Кбит/сек
Каналы : 2 канала
Расположение каналов : Front: L R
Частота : 48,0 КГц
Частота кадров : 46,875 кадров/сек (1024 SPF)
Метод сжатия : С потерями
Размер потока : 33,2 Мбайт (8%)
Default : Да
Forced : Нет
Аудио #2
Идентификатор : 3
Формат : AAC
Формат/Информация : Advanced Audio Codec
Профиль формата : LC
Идентификатор кодека : A_AAC-2
Продолжительность : 24 м. 10 с.
Битрейт : 196 Кбит/сек
Каналы : 2 канала
Расположение каналов : Front: L R
Частота : 48,0 КГц
Частота кадров : 46,875 кадров/сек (1024 SPF)
Метод сжатия : С потерями
Размер потока : 34,0 Мбайт (8%)
Default : Нет
Forced : Нет

Список эпизодов

01. Asta and Yuno
02. The Boys` Promise
03. To the Royal Capital of the Clover Kingdom!
04. The Magic Knights Entrance Exam
05. The Path to the Wizard King
06. The Black Bulls
07. The Other New Recruit
08. Go! Go! First Mission
09. Beast
10. Those Who Protect
11. What Happened on a Certain Day in the Castle Town
12. The Wizard King Saw
13. The Wizard King Saw, Continued
14. Dungeon
15. The Diamond Mage
16. Friends
17. Destroyer
18. Memories of You
19. Destruction and Salvation
20. Assembly at the Royal Capital
21. Capital Riot
22. Wild Magic Dance
23. The Crimson Lion King
24. Blackout
25. Adversity
26. Wounded Beasts
27. Light
28. The One I`ve Set My Heart On
29. Path
30. The Mirror Mage
31. Pursuit over the Snow
32. Three-Leaf Sprouts
33. To Help Somebody Someday
34. Light Magic vs Dark Magic
35. The Light of Judgment
36. Three Eyes
37. The One with No Magic
38. The Magic Knights Captain Conference

Отличия

http://cybertorrent.ru/viewtopic.php?t=5461660 - альтернативная озвучка
сэмпл: http://multi-up.com/1173233

Скриншоты

[torrents24.pl].t57169.torrent 
Торрент: Зарегистрирован [ 2018-07-12 04:13 ] · 87ADB7F3E32FFD6D1E7072E261470CD710CF4925

Скачать .torrent

Скачать

53 KB

Статус: проверено
Скачан: 0 раз
Размер: 17,73 GB
Профиль [ЛС]
Показать сообщения:    

Текущее время: 17-Июл 13:29

Часовой пояс: UTC ± 0



Вы не можете начинать темы
Вы не можете отвечать на сообщения
Вы не можете редактировать свои сообщения
Вы не можете удалять свои сообщения
Вы не можете голосовать в опросах
Вы не можете прикреплять файлы к сообщениям
Вы можете скачивать файлы