Статистика раздачи
Размер:  4,83 GB   |    Зарегистрирован:  25 дней   |    Скачан:  0 раз

Полного источника не было: Никогда

 
   
 
 

genjabtr ®

Пол:
Не указан
Стаж:
8 месяцев 7 дней
Сообщений:
330

Повелитель Рагнарёка и покровитель Эйнхерий / Hyakuren no Haou to Seiyaku no Valkyria / 百錬の覇王と聖約の戦乙女
-
Страна: Япония
Год выпуска: 2018 г.
Жанр: Фэнтези, приключения, гарем
Тип: TV
Продолжительность: 12 эпизодов по ~24 минуты
Режиссер: Кобаяси Косукэ
Студия: EMT Squared
-
Перевод:
Русские субтитры:
Переводчик: Crunchyroll
Озвучка: Get Smart Group
- одноголосая (жен.): Persona99
Тех. работы: Дмитрий Леманн

-
Описание : Эта история расскажет нам о головокружительном карьерном взлёте, который только можно себе представить. У многих и в нашем мире, в привычных условиях, никак не получается добиться успеха, а наш главный герой, 16-летний Юто Суо умудрился достичь невероятных высот в совершенно чужом мире. Так с чего же всё началось, и как он смог туда попасть? Однажды Юто со своим другом Мицуки решил проверить городскую легенду о зеркале в местном храме. Проверили они до такой степени, что Юто перенесло в другой мир под названием Иггдрасиль.
Мир тот находился на грани крупномасшатбной войны, а пока бесчисленное множество аристократов устраивали междоусобицы и боролись друг с другом за господство. В таких вот условиях оказался Юто, и не было у него никакого оружия, кроме собственных мозгов. Однако за относительно небольшой срок он стал патриархом армии, состоящей из нескольких тысяч человек, и на достигнутом он останавливаться явно не собирается. Впереди королевский трон. К тому же, он окружён помощью и заботой прекрасных Эйнхерий, поклявшихся в верности своему покровителю.
-
world-art | AniDB | MyAnimeList | Офиц. Сайт
-
Автор рипа: HorribleSubs
Качество: WEBRip
Тип релиза: Без хардсаба
Формат видео: MKV
Наличие линковки: Нет
Видео: AVC, 1280x720 (16:9), 1982 kbps, 23.976 fps, 8bit
Аудио 1: Русский, AC3, 192 Кбит/с, 48.0 kHz, 2 ch (в составе контейнера)
Аудио 2: Японский, AС3, 192 Кбит/с, 48.0 kHz, 2 ch (в составе контейнера)
Субтитры 1 (ASS): Русские (в составе контейнера) - Надписи
Субтитры 2 (ASS): Русские (в составе контейнера) - Полные
Субтитры 3 (ASS): Английские (в составе контейнера) - Перевод: Crunchyroll
-

Названия эпизодов

01. Клятва Кубка / The Oath of the Chalice
02. Тактика Волков / Tactics of the Wolf
03. Две руны и две сестры / Twin Runes and Twin Sisters
04. Крепкий, как сталь / Steel Is Tempered One Hundred Times
05. Лев, пожирающий тигра / The Lion That Devours the Tiger
06. Выходной у Валькирий / Valkyrie`s Day Off
07. Долгожданная месть / A Long-Awaited Revenge
08. Котацу и работа в кузнице / The Kotatsu and the Empty Bellows
09. Прекрасная луна / Beautiful Moon
10. Загнанный Волк / Cornered Wolf
11. Суть великого правителя / Proof of a Great Ruler
12. Место, которое можно назвать домом / A Place to Call Home

Скриншоты


MediaInfo

General
Unique ID : 198389985830301193596045729997448666093 (0x9540857CF12705A4B732536005F1DBED)
Complete name : E:/Torrent_2/Hyakuren no Haou to Seiyaku no Valkyria (2018, AVC WEBRip-720p, RUS JAP+SUB)/[HorribleSubs] Hyakuren no Haou to Seiyaku no Valkyria - 01 [720p] [Persona99.GSG].mkv
Format : Matroska
Format version : Version 2
File size : 410 MiB
Duration : 23mn 43s
Overall bit rate : 2 414 Kbps
Encoded date : UTC 2018-09-26 10:17:32
Writing application : mkvmerge v5.5.0 ('Healer') built on Apr 6 2012 21:43:24
Writing library : libebml v1.2.3 + libmatroska v1.3.0
Attachment : Yes
Video #1
ID : 1
Format : AVC
Format/Info : Advanced Video Codec
Format profile : High@L4.0
Format settings, CABAC : Yes
Format settings, ReFrames : 6 frames
Codec ID : V_MPEG4/ISO/AVC
Duration : 23mn 43s
Bit rate : 1 982 Kbps
Width : 1 280 pixels
Height : 720 pixels
Display aspect ratio : 16:9
Frame rate mode : Constant
Frame rate : 23.976 fps
Color space : YUV
Chroma subsampling : 4:2:0
Bit depth : 8 bits
Scan type : Progressive
Bits/(Pixel*Frame) : 0.090
Stream size : 336 MiB (82%)
Writing library : x264 core 142
Encoding settings : cabac=1 / ref=6 / deblock=1:1:1 / analyse=0x3:0x113 / me=umh / subme=8 / psy=1 / psy_rd=0.40:0.00 / mixed_ref=1 / me_range=16 / chroma_me=1 / trellis=1 / 8x8dct=1 / cqm=0 / deadzone=21,11 / fast_pskip=1 / chroma_qp_offset=-2 / threads=10 / lookahead_threads=1 / sliced_threads=0 / nr=0 / decimate=1 / interlaced=0 / bluray_compat=0 / constrained_intra=0 / bframes=3 / b_pyramid=2 / b_adapt=2 / b_bias=0 / direct=3 / weightb=1 / open_gop=0 / weightp=2 / keyint=48 / keyint_min=24 / scenecut=40 / intra_refresh=0 / rc_lookahead=48 / rc=crf / mbtree=1 / crf=15.0 / qcomp=0.60 / qpmin=0 / qpmax=69 / qpstep=4 / vbv_maxrate=4000 / vbv_bufsize=6000 / crf_max=0.0 / nal_hrd=none / filler=0 / ip_ratio=1.40 / aq=1:0.60
Language : Japanese
Default : Yes
Forced : No
Audio #2
ID : 2
Format : AC-3
Format/Info : Audio Coding 3
Mode extension : CM (complete main)
Format settings, Endianness : Big
Codec ID : A_AC3
Duration : 23mn 43s
Bit rate mode : Constant
Bit rate : 192 Kbps
Channel(s) : 2 channels
Channel positions : Front: L R
Sampling rate : 48.0 KHz
Bit depth : 16 bits
Compression mode : Lossy
Stream size : 32.6 MiB (8%)
Title : Persona99 [Get Smart Group]
Language : Russian
Default : Yes
Forced : No
Audio #3
ID : 3
Format : AC-3
Format/Info : Audio Coding 3
Mode extension : CM (complete main)
Format settings, Endianness : Big
Codec ID : A_AC3
Duration : 23mn 43s
Bit rate mode : Constant
Bit rate : 192 Kbps
Channel(s) : 2 channels
Channel positions : Front: L R
Sampling rate : 48.0 KHz
Bit depth : 16 bits
Compression mode : Lossy
Stream size : 32.6 MiB (8%)
Language : Japanese
Default : No
Forced : No
Text #4
ID : 4
Format : ASS
Codec ID : S_TEXT/ASS
Codec ID/Info : Advanced Sub Station Alpha
Compression mode : Lossless
Title : Надписи
Language : Russian
Default : Yes
Forced : No
Text #5
ID : 5
Format : ASS
Codec ID : S_TEXT/ASS
Codec ID/Info : Advanced Sub Station Alpha
Compression mode : Lossless
Title : Полные
Language : Russian
Default : No
Forced : No
Text #6
ID : 6
Format : ASS
Codec ID : S_TEXT/ASS
Codec ID/Info : Advanced Sub Station Alpha
Compression mode : Lossless
Language : English
Default : No
Forced : No

Отличия от других раздач

EFill - http://cybertorrent.ru/viewtopic.php?t=5584950 - WEBRip, альтернативная озвучка
Страник 2.0 - http://cybertorrent.ru/viewtopic.php?t=5592031 - 720p, альтернативная озвучка
[torrents24.pl].t58652.torrent 
Торрент: Зарегистрирован [ 2018-09-26 23:27 ] · 1FD59CC7FA726020130C01156FE8F520595B4A60

Скачать .torrent

Скачать

14 KB

Статус: проверено
Скачан: 0 раз
Размер: 4,83 GB
Профиль [ЛС]
Показать сообщения:    

Текущее время: 22-Окт 22:51

Часовой пояс: UTC ± 0



Вы не можете начинать темы
Вы не можете отвечать на сообщения
Вы не можете редактировать свои сообщения
Вы не можете удалять свои сообщения
Вы не можете голосовать в опросах
Вы не можете прикреплять файлы к сообщениям
Вы можете скачивать файлы
Torrents24.ru открытый BitTorrent Torrents24.pl открытый BitTorrent CyberTorrent.ru открытый BitTorrent BtList.ru рейтинг BitTorrent трекеров Яндекс.Метрика